En esta mini serie de 3 partes, la confusion y el caos es descrito por aquellos que fueron testigos de ello, en historias extraordinarias que dan lugar a heroes, villanos, tragedia y triunfo.

A traves de relatos sensacionales de 1ª mano, las situaciones de batalla son descritos con detalles minuciosos por veteranos y victimas ya que revivieron la crisis que afecto tanto a ellos mismos como a sus paises.

Desde los inicios de la Alemania Nazi y y sus practicas asesinas, hasta las batallas entre el imperio japones y el norteamericano...



Format : MPEG-4
Format profile : Base Media / Version 2
Codec ID : mp42
File size : 879 MiB
Duration : 44mn 59s
Overall bit rate mode : Variable
Overall bit rate : 2 731 Kbps

Video
ID : 1
Format : AVC
Format/Info : Advanced Video Codec
Format profile : High@L3.1
Format settings, CABAC : Yes
Format settings, ReFrames : 1 frame
Format settings, GOP : M=1, N=60
Codec ID : avc1
Codec ID/Info : Advanced Video Coding
Duration : 44mn 59s
Bit rate : 2 536 Kbps
Maximum bit rate : 8 694 Kbps
Width : 1 280 pixels
Height : 720 pixels
Display aspect ratio : 16:9
Frame rate mode : Constant
Frame rate : 25.000 fps
Color space : YUV
Chroma subsampling : 4:2:0
Bit depth : 8 bits
Scan type : Progressive
Bits/(Pixel*Frame) : 0.110
Stream size : 816 MiB (93%)

Audio
ID : 2
Format : AAC
Format/Info : Advanced Audio Codec
Format profile : LC
Codec ID : 40
Duration : 44mn 59s
Bit rate mode : Variable
Bit rate : 192 Kbps
Maximum bit rate : 202 Kbps
Channel count : 2 channels
Channel positions : Front: L R
Sampling rate : 44.1 KHz
Compression mode : Lossy
Stream size : 61.8 MiB (7%)




>EN ESPAÑOL | DE ESPAÑA<

Código:
http://link-safe.net/folder/a73270c7-a9e1




EPISODIO NÚMERO 1

Código:
http://ul.to/whaxu8oh

Código:
http://www.putlocker.com/file/E22C2FF97D80D13F

Código:
http://rapidgator.net/file/c5a464c9d12a7aa44d00af50f02d30ef/dss1.rar.html

20:00- 4 de Octubre del 2013 - SIGUEN LOS PROBLEMAS CON EL SERVIDOR

EPISODIO NÚMERO 2

Código:
http://ul.to/objp3jwb

Código:
http://www.putlocker.com/file/9BC275A467F0C2DD

Código:
http://rapidgator.net/file/ac685e13661002b2277d46df1df740c0/dss3.rar.html

20:00- 4 de Octubre del 2013 - SIGUEN LOS PROBLEMAS CON EL SERVIDOR

EPISODIO NÚMERO 3

Código:
http://ul.to/38puzyc5

Código:
http://www.putlocker.com/file/31D7A1562744AC42

Código:
http://rapidgator.net/file/58d9a133a37d6c4063c9b8f36e31123b/ss3.rar.html

20:00- 4 de Octubre del 2013 - SIGUEN LOS PROBLEMAS CON EL SERVIDOR

- - - - - - - - - - - - - - - - - - - - - - - - - - - - - - - - - - - - - - - - - - - - - - - - -


Yo soy de la época en la que un disco pirata era un disco no oficial de Led Zepelin, o de los Rolling Stones, eran estos vinilos blancos, con una fotocopia...
Para mi el disco pirata fue siempre algo difícil de conseguir, un articulo de colección, una especie de joya única
-Andrés Calamaro


HAGO ESTE COMENTARIO POR UN SENCILLO MOTIVO, DESDE QUE SUBO ARCHIVOS A PUTLOCKER HAN BAJADO BASTANTE MIS GANANCIAS, COSA QUE ME DARIA IGUAL SI NO FUERA POR UNA RAZÓN,
SON ESAS GANANCIAS LAS QUE MANTIENEN VIVAS MIS CUENTAS PREMIUM PARA QUE LOS DEMAS PODAIS DISFRUTAR-LAS.