Jon Sistiaga, director de REC, se adentra en este tercer reportaje en Los desiertos de Al Qaeda. En esta zona inhóspita se mantienen los secuestrados extranjeros, entre ellos dos cooperantes españoles.

En esta inmensidad desconocida del Sahara, narcotraficantes y terroristas islamistas comparten territorio y negocios, campan a sus anchas e imponen su ley...


Format : MPEG-4
Format profile : Base Media / Version 2
Codec ID : mp42
File size : 231 MiB
Duration : 54mn 23s
Overall bit rate mode : Variable
Overall bit rate : 593 Kbps

Video
ID : 1
Format : AVC
Format/Info : Advanced Video Codec
Format profile : Baseline@L3.0
Format settings, CABAC : No
Format settings, ReFrames : 1 frame
Codec ID : avc1
Codec ID/Info : Advanced Video Coding
Duration : 54mn 23s
Bit rate : 495 Kbps
Maximum bit rate : 1 549 Kbps
Width : 634 pixels
Height : 360 pixels
Display aspect ratio : 16:9
Frame rate mode : Constant
Frame rate : 25.000 fps
Color space : YUV
Chroma subsampling : 4:2:0
Bit depth : 8 bits
Scan type : Progressive
Bits/(Pixel*Frame) : 0.087
Stream size : 192 MiB (83%)

Audio
ID : 2
Format : AAC
Format/Info : Advanced Audio Codec
Format profile : LC
Codec ID : 40
Duration : 54mn 23s
Bit rate mode : Variable
Bit rate : 96.0 Kbps
Maximum bit rate : 105 Kbps
Channel count : 2 channels
Channel positions : Front: L R
Sampling rate : 44.1 KHz
Compression mode : Lossy
Stream size : 37.4 MiB (16%)




>EN ESPAÑOL | DE ESPAÑA<

Código:
http://link-safe.net/folder/a73270c7-a9e1




[SOLO LOS USUARIOS REGISTRADOS PUEDEN VER LOS ENLACES. ]
Código:
http://ul.to/5fjat1k1
[SOLO LOS USUARIOS REGISTRADOS PUEDEN VER LOS ENLACES. ]
Código:
http://rapidgator.net/file/62d3830c1355131e9f49d2dad3f36793/LdesiedAled.rar.html
[SOLO LOS USUARIOS REGISTRADOS PUEDEN VER LOS ENLACES. ]
Código:
http://turbobit.net/n714bozmomux.html

Código:
http://i1ppv4.1fichier.com/es/


Yo soy de la época en la que un disco pirata era un disco no oficial de Led Zepelin, o de los Rolling Stones, eran estos vinilos blancos, con una fotocopia...
Para mi el disco pirata fue siempre algo difícil de conseguir, un articulo de colección, una especie de joya única
-Andrés Calamaro


HAGO ESTE COMENTARIO POR UN SENCILLO MOTIVO, DESDE QUE SUBO ARCHIVOS A SERVIDORES FREE HAN BAJADO BASTANTE MIS GANANCIAS, COSA QUE ME DARIA IGUAL SI NO FUERA POR UNA RAZÓN, SON ESAS GANANCIAS LAS QUE MANTIENEN VIVAS MIS CUENTAS PREMIUM PARA QUE LOS DEMAS PODAIS DISFRUTAR-LAS.