WTCR Copa Mundial de Turismos
Temporada actual Temporada 2019
Categoría Turismos
Ubicación Mundial
Fundación 1987 (Fundación), 2005 (refundación), 2018 (2ª refundación)
Temporada inicial 1987 (Fundación), 2005 (refundación), 2018 (2ª refundación), Ultimo año 1987 (Primer cese), 2017 (2º cese)
Ganadores Último campeón, Gabriele Tarquini (2018), Última campeona, BRC Racing Team (2018)
Participantes, Constructores Alfa Romeo, Honda, Hyundai, China Lynk & Co, Volkswagen
Neumáticos Y Yokohama


Calendario del WTCR 2019
6/7 abril – Marrakech (Marruecos)
27/28 abril – Hungaroring (Hungría)
11/12 mayo – Slovakiaring (Eslovaquia)
17/19 mayo – Zandvoort (Holanda)
22/22 junio – Nürburgring (Alemania)
6/7 julio - Vila Real (Portugal)
14/15 septiembre – Ningbo (China)
26/27 octubre – Suzuka (Japón)
15/17 noviembre – Macao
Por anunciar – Sepang (Malasia)








Calidad: HDTV 720p
Fuente: Fox Sports 3
Formato: MKV
Resolución: 1280x720p
Video: AVC H264
Duración: 52 min.
Audio: Español AAC 2.0 48000 KHz
Comentarista: Martin Ponte
Tamaño: 700 MB
Subtítulos: No
By: Parrix








Descomprimir con winrar, 7zip o programa similar





MediaInfo:


Código:

General
Complete name                            : WTCR.Marruecos.mkv
Format                                   : MPEG-4
Format profile                           : Base Media / Version 2
Codec ID                                 : mp42 (mp42)
File size                                : 692 MiB
Duration                                 : 43 min 17 s
Overall bit rate                         : 2 234 kb/s
Codirector                               : codirector
Production studio                        : studio
ContentType                              : Unknown Type
Encoded date                             : UTC 2019-04-06 23:36:38
Tagged date                              : UTC 2019-04-06 23:36:38
FileExtension_Invalid                    : mov mp4 m4v m4a m4b m4p m4r 3ga 3gpa 3gpp 3gp 3gpp2 3g2 k3g jpm jpx mqv ismv isma ismt f4a f4b f4v


Video
ID                                       : 1
Format                                   : AVC
Format/Info                              : Advanced Video Codec
Format profile                           : Main@L4.1
Format settings                          : CABAC / 2 Ref Frames
Format settings, CABAC                   : Yes
Format settings, ReFrames                : 2 frames
Format settings, GOP                     : M=3, N=25
Muxing mode                              : Container profile=Baseline@3.0
Codec ID                                 : avc1
Codec ID/Info                            : Advanced Video Coding
Duration                                 : 43 min 16 s
Bit rate                                 : 2 100 kb/s
Width                                    : 1 280 pixels
Height                                   : 720 pixels
Display aspect ratio                     : 16:9
Frame rate mode                          : Constant
Frame rate                               : 30.000 FPS
Color space                              : YUV
Chroma subsampling                       : 4:2:0
Bit depth                                : 8 bits
Scan type                                : Progressive
Bits/(Pixel*Frame)                       : 0.076
Stream size                              : 650 MiB (94%)
Language                                 : English
Encoded date                             : UTC 1953-04-05 23:36:38
Tagged date                              : UTC 1953-04-05 23:36:38
Codec configuration box                  : avcC


Audio
ID                                       : 2
Format                                   : AAC LC
Format/Info                              : Advanced Audio Codec Low Complexity
Codec ID                                 : mp4a-40-2
Duration                                 : 43 min 17 s
Bit rate mode                            : Constant
Bit rate                                 : 128 kb/s
Channel(s)                               : 2 channels
Channel layout                           : L R
Sampling rate                            : 48.0 kHz
Frame rate                               : 46.875 FPS (1024 SPF)
Compression mode                         : Lossy
Stream size                              : 39.6 MiB (6%)
Title                                    : Stereo
Language                                 : English
Default                                  : Yes
Alternate group                          : 1
Encoded date                             : UTC 1953-04-05 23:36:38
Tagged date                              : UTC 1953-04-05 23:36:38







La Copa Mundial de Turismos (World Touring Car Cup en inglés, abreviado WTCR) es una competición internacional de automovilismo de velocidad disputada con automóviles de turismo y organizada por la Federación Internacional del Automóvil. Actualmente es la tercera competición con carácter mundial organizada por la FIA, después de la Fórmula 1 y el Campeonato Mundial de Rally.















Se recomienda descargar con JDownloader v2, Mipony o programa similar





Descarga todo de un servidor FREE + 1 parte NO FREE
















GP1 - Marruecos





[HIDE]
Código:

https://safelinking.net/b79ksAk
[/HIDE]




Visita mi perfil para ver todos mis aportes