WCB: Consejo Mundial de Boxeo


- Campeonato Internacional Superligero CMB


Fecha: 13 Apr. 2019


El Mexicano Marcos Villasana Jr. (23-6-0, 13 ko's)


VS


El Venezolano Roiman "Flaco de Oro" Villa (19-0-0, 19 ko's)




Presidente: Mauricio Sulaimán
Fundador: Adolfo López Mateos
Fundación: 1963
Tipo: Organización sancionadora de Boxeo
Acrónimo: WBC CMB
Sede central: Ciudad de México, México








Calidad: HDTV 720p
Formato: MKV
Fuente: FOX Sports 2
Resolución: 1280x720p
Video: AVC H264
Audio: Español
Tamaño: 1,5 GB
Subtítulos: No
By: Parrix


NOTA: Contiene otros combates de la velada








Descomprimir con winrar, 7zip o programa similar





MediaInfo:


Código:

General
Complete name                            : Boxeo.WBC.Superligero.Villazana.vs.Villa.mkv
Format                                   : MPEG-4
Format profile                           : Base Media / Version 2
Codec ID                                 : mp42 (mp42)
File size                                : 1.51 GiB
Duration                                 : 1 h 36 min
Overall bit rate                         : 2 239 kb/s
Codirector                               : codirector
Production studio                        : studio
ContentType                              : Unknown Type
Encoded date                             : UTC 2019-04-13 05:30:49
Tagged date                              : UTC 2019-04-13 05:30:49
FileExtension_Invalid                    : mov mp4 m4v m4a m4b m4p m4r 3ga 3gpa 3gpp 3gp 3gpp2 3g2 k3g jpm jpx mqv ismv isma ismt f4a f4b f4v


Video
ID                                       : 1
Format                                   : AVC
Format/Info                              : Advanced Video Codec
Format profile                           : Main@L4.1
Format settings                          : CABAC / 2 Ref Frames
Format settings, CABAC                   : Yes
Format settings, ReFrames                : 2 frames
Format settings, GOP                     : M=3, N=25
Muxing mode                              : Container profile=Baseline@3.0
Codec ID                                 : avc1
Codec ID/Info                            : Advanced Video Coding
Duration                                 : 1 h 36 min
Bit rate                                 : 2 104 kb/s
Width                                    : 1 280 pixels
Height                                   : 720 pixels
Display aspect ratio                     : 16:9
Frame rate mode                          : Constant
Frame rate                               : 29.970 (30000/1001) FPS
Color space                              : YUV
Chroma subsampling                       : 4:2:0
Bit depth                                : 8 bits
Scan type                                : Progressive
Bits/(Pixel*Frame)                       : 0.076
Stream size                              : 1.42 GiB (94%)
Language                                 : English
Encoded date                             : UTC 1953-04-12 05:30:49
Tagged date                              : UTC 1953-04-12 05:30:49
Codec configuration box                  : avcC


Audio
ID                                       : 2
Format                                   : AAC LC
Format/Info                              : Advanced Audio Codec Low Complexity
Codec ID                                 : mp4a-40-2
Duration                                 : 1 h 36 min
Bit rate mode                            : Constant
Bit rate                                 : 128 kb/s
Channel(s)                               : 2 channels
Channel layout                           : L R
Sampling rate                            : 48.0 kHz
Frame rate                               : 46.875 FPS (1024 SPF)
Compression mode                         : Lossy
Stream size                              : 88.6 MiB (6%)
Title                                    : Stereo
Language                                 : English
Default                                  : Yes
Alternate group                          : 1
Encoded date                             : UTC 1953-04-12 05:30:49
Tagged date                              : UTC 1953-04-12 05:30:49







- El Consejo Mundial de Boxeo fue inicialmente creado por 11 países: Estados Unidos, Argentina, Inglaterra, Francia, México, Filipinas, Panamá, Chile, Perú, Venezuela y Brasil, para crear una organización que lograra unificar todas las comisiones del mundo para controlar la expansión del boxeo.


Peso superligero, peso wélter junior o peso wélter ligero es una categoría competitiva del boxeo y otros deportes de combate, que agrupa a competidores de peso intermedio. En el boxeo profesional (varones mayores) la categoría abarca a los púgiles que pesan más de 61,237 kg (135 lb) y menos de 63,503 kg (140 lb). En el boxeo aficionado (varones mayores) la categoría abarca a los boxeadores que pesan más de 60 kg (132,28 lb) y menos de 64 kg (141,10 lb).

















Se recomienda descargar con JDownloader v2, Mipony o programa similar





Descarga todo de un servidor FREE + 1 parte NO FREE
















[HIDE]
Código:

https://safelinking.net/uMaYnxl
[/HIDE]




Visita mi perfil para ver todos mis aportes