Sinopsis


Vikingos Temporada 1 Completa Latino Dual tambien conocida como Vikings compartimos la nueva serie de televisión en su primera temporada completa, que consta de 9 capitulos con Audio Dual en Español latino e Ingles, coproducida entre Canadá e Irlanda, creada por Michael Hirst. En la cual podremos ver a los temerarios y miticos vikingos y la historia de Ragnar Lothbrok y su familia que forman una poderosa banda de los mejores guerreros de aquella época. Disfruta de esta fabulosa serie que te lo trae descargatelocorp llamado Vikingos Temporada 1 Completa Latino Dual.
En la Serie Vikingos en su Temporada 1 Completa con Audio Latino e Ingles Dual por varios servidores gratuitos de los mejores de la web entre ellos Mega, FireDrive. Ragnar Lothbrok y su familia forman una poderosa banda de vikingos los mejores guerreros de aquella época. Además de ser un guerrero valiente, Ragnar encarna las tradiciones nórdicas de la devoción a los dioses, la leyenda dice que él era un descendiente directo de Odín, el dios de la guerra y los guerreros.


CAPTURAS



DATOS TECNICOS


Título original: Vikingos Temporada 1
Año: 2013
Duración: 48 Minutos
País: Irlanda
Director: Michael Hirst (Creator), Ciaran Donnelly, Johan Renck
Guión: Michael Hirst
Fotografía: John S. Bartley
Género: Serie de TV. Acción. Drama. Bélico | Histórico. Vikingos. Siglo IX


INFO RIPEO


Tamaño Total: 10,6 GB
Peso aproximado por capitulo: 941 MB
Formato: MKV
Calidad: HD 1080p
Lenguaje Principal: Castellano DD + 5.1
Subtitulos: Castellano
Resolución: 1080 x 1920
Duración: 48 Minutos Aproximadamente
Temporada: 1
Episodios: 9/9 Completa


INFO-ARCHIVO

General
Unique ID : 45603257847688300905985878076325450074 (0x224EDE3444A079A5932A568B3F3D515A)
Complete name : C:\Users\lokit\Videos\Vikingos Temporada 1 [2013][MICROHD WEB-DL 1080p][MKV][Castellano DD + 5.1][0909][941 MB][UPTOBOX]\01-Vikingos - Ritos de iniciación\01-Vikingos - Ritos de iniciación.mkv
Format : Matroska
Format version : Version 4 / Version 2
File size : 942 MiB
Duration : 46 min 40 s
Overall bit rate : 2 820 kb/s
Encoded date : UTC 2019-11-28 03:05:37
Writing application : mkvmerge v40.0.0 ('Old Town Road + Pony') 64-bit
Writing library : libebml v1.3.9 + libmatroska v1.5.2


Video
ID : 1
Format : AVC
Format/Info : Advanced Video Codec
Format profile : High@L4
Format settings, CABAC : Yes
Format settings, RefFrames : 3 frames
Codec ID : V_MPEG4/ISO/AVC
Duration : 46 min 40 s
Bit rate : 2 435 kb/s
Width : 1 920 pixels
Height : 1 080 pixels
Display aspect ratio : 16:9
Frame rate mode : Constant
Frame rate : 23.976 (24000/1001) FPS
Color space : YUV
Chroma subsampling : 4:2:0
Bit depth : 8 bits
Scan type : Progressive
Bits/(Pixel*Frame) : 0.049
Stream size : 813 MiB (86%)
Default : Yes
Forced : No


Audio
ID : 2
Format : AC-3
Format/Info : Audio Coding 3
Format settings, Endianness : Big
Codec ID : A_AC3
Duration : 46 min 40 s
Bit rate mode : Constant
Bit rate : 384 kb/s
Channel(s) : 6 channels
Channel positions : Front: L C R, Side: L R, LFE
Sampling rate : 48.0 kHz
Frame rate : 31.250 FPS (1536 SPF)
Bit depth : 16 bits
Compression mode : Lossy
Delay relative to video : -83 ms
Stream size : 128 MiB (14%)
Language : Spanish
Service kind : Complete Main
Default : Yes
Forced : No



DESCARGA - UPTOBOX

01-Vikingos - Ritos de iniciación.rar (941.33 MB)

[SOLO LOS USUARIOS REGISTRADOS PUEDEN VER LOS ENLACES. ]

02-Vikingos - La furia de los hombres del norte.rar (1.17 GB)

[SOLO LOS USUARIOS REGISTRADOS PUEDEN VER LOS ENLACES. ]

03-Vikingos - Desposeídos.rar (1.34 GB)

[SOLO LOS USUARIOS REGISTRADOS PUEDEN VER LOS ENLACES. ]

04-Vikingos - Juicio.rar (1.04 GB)

[SOLO LOS USUARIOS REGISTRADOS PUEDEN VER LOS ENLACES. ]

05-Vikingos - Asalto.rar (1.48 GB)

[SOLO LOS USUARIOS REGISTRADOS PUEDEN VER LOS ENLACES. ]

06-Vikingos - El entierro de los muertos.rar (1.34 GB)

[SOLO LOS USUARIOS REGISTRADOS PUEDEN VER LOS ENLACES. ]

07-Vikingos - El rescate de un rey.rar (1.21 GB)

[SOLO LOS USUARIOS REGISTRADOS PUEDEN VER LOS ENLACES. ]

08-Vikingos - Sacrificio.rar (1004.95 MB)

[SOLO LOS USUARIOS REGISTRADOS PUEDEN VER LOS ENLACES. ]

09-Vikingos - Todos cambian.rar (1.14 GB)

[SOLO LOS USUARIOS REGISTRADOS PUEDEN VER LOS ENLACES. ]